Autore Topic: Analizzare Video  (Letto 1275 volte)

XHAOZ

  • Annyong Bluth
  • Post: 684
  • Sesso: Maschio
    • Mostra profilo
Analizzare Video
« il: 16 January 2012, 23:18:32 »
Mi interesserebbe sapere se esiste un software che permetta di ricavare info da un file video... se è a 720p o 1080i, AAC o AC3, mkv o avi, etc...

MacGyver

  • Angus
  • *
  • Post: 24427
  • Sesso: Maschio
  • Clear Eyes, Full Hearts. CAN'T LOSE!
    • Mostra profilo
  • (Re)Synch: 4 8 15 16 23 42
Re: Analizzare Video
« Risposta #1 il: 16 January 2012, 23:24:23 »
Mi interesserebbe sapere se esiste un software che permetta di ricavare info da un file video... se è a 720p o 1080i, AAC o AC3, mkv o avi, etc...

da un annetto a questa parte nel klite codec pack (io prendo sempre i full) è incluso mediainfo. se non vuoi installare klite, installa mediainfo e basta. tasto destro sul file, mediainfo, e ti escono informazioni del tipo:

Codice: [Seleziona]
General
Unique ID                        : 241313322252923783583864610496221743034 (0xB58B415D596BA8DC8C21B0A6D37B07BA)
Complete name                    : xxxxxxx.mkv
Format                           : Matroska
File size                        : 6.48 GiB
Duration                         : 1h 28mn
Overall bit rate                 : 10.4 Mbps
Encoded date                     : UTC 2011-11-12 15:04:51
Writing application              : mkvmerge v5.0.1 ('Es ist Sommer') built on Oct  9 2011 11:55:43
Writing library                  : libebml v1.2.2 + libmatroska v1.3.0

Video
ID                               : 1
Format                           : AVC
Format/Info                      : Advanced Video Codec
Format profile                   : High@L4.1
Format settings, CABAC           : Yes
Format settings, ReFrames        : 2 frames
Muxing mode                      : Header stripping
Codec ID                         : V_MPEG4/ISO/AVC
Duration                         : 1h 28mn
Bit rate                         : 9 790 Kbps
Width                            : 1 920 pixels
Height                           : 1 080 pixels
Display aspect ratio             : 16:9
Frame rate                       : 23.976 fps
Color space                      : YUV
Chroma subsampling               : 4:2:0
Bit depth                        : 8 bits
Scan type                        : Progressive
Bits/(Pixel*Frame)               : 0.197
Stream size                      : 6.08 GiB (94%)
Title                            : Source - 3D4U
Writing library                  : x264 core
Language                         : English
Color primaries                  : BT.709-5, BT.1361, IEC 61966-2-4, SMPTE RP177
Transfer characteristics         : BT.709-5, BT.1361
Matrix coefficients              : BT.709-5, BT.1361, IEC 61966-2-4 709, SMPTE RP177

Audio
ID                               : 2
Format                           : AC-3
Format/Info                      : Audio Coding 3
Mode extension                   : CM (complete main)
Muxing mode                      : Header stripping
Codec ID                         : A_AC3
Duration                         : 1h 28mn
Bit rate mode                    : Constant
Bit rate                         : 448 Kbps
Channel(s)                       : 6 channels
Channel positions                : Front: L C R, Side: L R, LFE
Sampling rate                    : 48.0 KHz
Bit depth                        : 16 bits
Compression mode                 : Lossy
Delay relative to video          : 27ms
Stream size                      : 285 MiB (4%)
Title                            : Italian
Language                         : Italian

I'm thinking about revolutionizing the whole offense.
What I'm gonna do is I'm gonna get rid of the quarterback and I'm gonna have four running backs do a hell of a lot of reverses.
That's what we're gonna do.
Comunque quelli di maxim sono tutti gay! :zizi:

XHAOZ

  • Annyong Bluth
  • Post: 684
  • Sesso: Maschio
    • Mostra profilo
Re: Analizzare Video
« Risposta #2 il: 21 January 2012, 16:08:55 »
ok thk! :)